[Login] or [Signup]
Login
Username:
Password:
[Signup]
[Recover Account]


Poll


You must be logged in to view polls



Torrent Details For "Solo A Star Wars Story 2018 720p HD-TS X264 [MW]"

Solo A Star Wars Story 2018 720p HD-TS X264 [MW]

Download this torrent | Magnet Download
Health:
Seeds: 363
Leechers: 295
Completed: 830 
Last Checked: 01-06-2018 13:10:03
External Torrent
Update Stats
Download Magnet


Poster
No poster


Watch-Free-HD     Download

Details
Name:Solo A Star Wars Story 2018 720p HD-TS X264 [MW]
Description:

 



General
Format                                   : Matroska
Format version                           : Version 4 / Version 2
File size                                : 1.18 GiB
Duration                                 : 2 h 6 min
Overall bit rate                         : 1 330 kb/s

Video
ID                                       : 1
Format                                   : AVC
Format/Info                              : Advanced Video Codec
Format profile                           : [email protected]
Format settings                          : CABAC / 6 Ref Frames
Format settings, CABAC                   : Yes
Format settings, RefFrames               : 6 frames
Codec ID                                 : V_MPEG4/ISO/AVC
Duration                                 : 2 h 6 min
Bit rate                                 : 1 200 kb/s
Width                                    : 1 280 pixels
Height                                   : 534 pixels
Display aspect ratio                     : 2.40:1
Frame rate mode                          : Constant
Frame rate                               : 30.000 FPS
Color space                              : YUV
Chroma subsampling                       : 4:2:0
Bit depth                                : 8 bits
Scan type                                : Progressive
Bits/(Pixel*Frame)                       : 0.059
Stream size                              : 1.06 GiB (90%)
Writing library                          : x264 core 155 r2893 b00bcaf
Default                                  : Yes
Forced                                   : No

Audio
ID                                       : 2
Format                                   : AAC
Format/Info                              : Advanced Audio Codec
Format profile                           : LC
Codec ID                                 : A_AAC-2
Duration                                 : 2 h 6 min
Bit rate                                 : 128 kb/s
Channel(s)                               : 2 channels
Channel positions                        : Front: L R
Sampling rate                            : 48.0 kHz
Frame rate                               : 46.875 FPS (1024 SPF)
Compression mode                         : Lossy
Stream size                              : 116 MiB (10%)
Language                                 : English
Default                                  : Yes
Forced                                   : No




             


Category:Movies > Pre-Releases
Lang:English  English
Total Size:1.18 GB
Info Hash:b1f8dcbdab7a5fc4e259f03149d31c17b24e89ee
Added By:Freaky
Date Added:01-06-2018 13:09:54
Views:235
Hits:10

Download Torrent

Ratings:Not Yet Rated (Log in to rate it)


Tracker:
udp://tracker.pirateparty.gr:6969/announce


File List: 


Comments

No comments still posted

Powered by 10 Hamsters v2-svn -|- Page Generated In 1.384318 secs.
-|- RSS FEED
Theme By: Nikkbu